osu file format v14

[General]
AudioFilename: 56e03b7fb2e8.mp3
AudioLeadIn: 1500
PreviewTime: 7524
Countdown: 0
SampleSet: Soft
StackLeniency: 0.7
Mode: 0
LetterboxInBreaks: 0
WidescreenStoryboard: 1

[Editor]
DistanceSpacing: 1.3
BeatDivisor: 2
GridSize: 4
TimelineZoom: 0.7

[Metadata]
Title:dawn
TitleUnicode:dawn
Artist:sixtythree
ArtistUnicode:sixtythree
Creator:Pjecoo
Version:Bakari's Normal
Source:
Tags:chillout guitar blues beats instrumental 63 wafu -bakari-
BeatmapID:642303
BeatmapSetID:254753

[Difficulty]
HPDrainRate:4
CircleSize:4
OverallDifficulty:4
ApproachRate:5
SliderMultiplier:1.15
SliderTickRate:1

[Events]
//Background and Video events
0,0,"BG.jpg",0,0
//Break Periods
2,55641,66441
//Storyboard Layer 0 (Background)
//Storyboard Layer 1 (Fail)
//Storyboard Layer 2 (Pass)
//Storyboard Layer 3 (Foreground)
//Storyboard Sound Samples

[TimingPoints]
7641,750,4,2,1,40,1,0
55641,-100,4,2,0,30,0,0
67641,-100,4,2,1,40,0,0
115641,-100,4,2,0,10,0,0

[Colours]
Combo1 : 182,159,204
Combo2 : 209,177,177
Combo3 : 205,207,169
Combo4 : 224,188,95

[HitObjects]
340,216,7641,6,0,B|380:202|422:207|456:224,2,115,4|8|0,0:0|0:0|0:0,0:0:0:0:
300,280,9516,1,4,0:0:0:0:
240,240,9891,2,0,B|232:206|240:172,1,57.5,8|0,0:0|0:0,0:0:0:0:
184,132,10641,2,0,B|145:150|117:183|104:220,2,115,4|8|0,0:0|0:0|0:0,0:0:0:0:
256,112,12516,1,6,0:0:0:0:
324,140,12891,1,8,0:0:0:0:
252,272,13641,6,0,B|244:304|252:336,1,57.5,4|0,0:0|0:0,0:0:0:0:
320,356,14391,2,0,L|436:340,1,115,8|4,0:0|0:0,0:0:0:0:
468,272,15516,1,4,0:0:0:0:
404,236,15891,2,0,L|340:246,1,57.5,8|4,0:0|0:0,0:0:0:0:
284,204,16641,2,0,B|277:180|279:156|288:136,1,57.5,4|4,0:0|0:0,0:0:0:0:
340,96,17391,1,8,0:0:0:0:
192,116,18141,1,4,0:0:0:0:
220,48,18516,1,2,0:0:0:0:
156,12,18891,2,0,B|137:6|117:7|99:12,1,57.5,8|4,0:0|0:0,0:0:0:0:
64,76,19641,6,0,B|83:137|76:200,1,115,4|8,0:0|0:0,0:0:0:0:
44,340,21141,2,0,L|108:344,1,57.5,0|4,0:0|0:0,0:0:0:0:
172,316,21891,2,0,L|236:312,1,57.5,8|0,0:0|0:0,0:0:0:0:
300,332,22641,2,0,B|339:345|378:342|413:328,2,115,4|8|0,0:0|0:0|0:0,0:0:0:0:
280,260,24516,2,0,L|284:188,2,57.5,6|8|0,0:0|0:0|0:0,0:0:0:0:
220,304,25641,6,0,L|88:288,2,115,4|8|4,0:0|0:0|0:0,0:0:0:0:
192,156,27891,2,0,B|165:163|139:161|115:152,1,57.5,8|4,0:0|0:0,0:0:0:0:
68,192,28641,2,0,B|55:221|56:252,1,57.5,4|4,0:0|0:0,0:0:0:0:
92,312,29391,1,8,0:0:0:0:
240,300,30141,2,0,L|300:304,1,57.5,4|2,0:0|0:0,0:0:0:0:
356,260,30891,1,8,0:0:0:0:
260,144,31641,6,0,B|256:100|272:61|300:32,2,115,4|8|0,0:0|0:0|0:0,0:0:0:0:
284,216,33516,1,4,0:0:0:0:
236,272,33891,2,0,B|207:274|180:264,1,57.5,8|0,0:0|0:0,0:0:0:0:
124,212,34641,1,4,0:0:0:0:
264,164,35391,1,8,0:0:0:0:
404,116,36141,2,0,B|414:88|416:60,2,57.5,0|6|8,0:0|0:0|0:0,0:0:0:0:
336,248,37641,6,0,B|374:273|420:271|455:248,2,115,4|8|4,0:0|0:0|0:0,0:0:0:0:
276,200,39516,1,4,0:0:0:0:
216,244,39891,2,0,L|212:308,1,57.5,8|4,0:0|0:0,0:0:0:0:
140,320,40641,2,0,L|132:196,2,115,4|8|4,0:0|0:0|0:0,0:0:0:0:
72,356,42516,1,6,0:0:0:0:
24,300,42891,1,8,0:0:0:0:
28,152,43641,6,0,B|66:129|111:128|148:144,1,115,4|8,0:0|0:0,0:0:0:0:
264,224,45141,1,0,0:0:0:0:
332,196,45516,1,4,0:0:0:0:
392,240,45891,2,0,B|399:272|396:304,1,57.5,8|0,0:0|0:0,0:0:0:0:
456,344,46641,2,0,B|480:308|489:267|484:227,2,115,4|8|0,0:0|0:0|0:0,0:0:0:0:
388,372,48516,1,6,0:0:0:0:
320,340,48891,1,8,0:0:0:0:
180,292,49641,6,0,B|137:286|96:298|64:320,2,115,4|8|4,0:0|0:0|0:0,0:0:0:0:
244,328,51516,1,4,0:0:0:0:
288,268,51891,2,0,L|284:204,1,57.5,8|4,0:0|0:0,0:0:0:0:
228,164,52641,2,0,B|218:122|228:80|252:48,2,115,4|8|4,0:0|0:0|0:0,0:0:0:0:
300,140,54516,1,2,0:0:0:0:
328,208,54891,1,8,0:0:0:0:
364,204,67641,6,0,L|368:72,2,115,4|8|0,0:0|0:0|0:0,0:0:0:0:
304,248,69516,1,4,0:0:0:0:
252,196,69891,2,0,B|219:194|188:204,1,57.5,8|0,0:0|0:0,0:0:0:0:
124,180,70641,2,0,B|114:139|124:98|148:68,2,115,4|8|0,0:0|0:0|0:0,0:0:0:0:
140,252,72516,1,6,0:0:0:0:
188,308,72891,1,8,0:0:0:0:
296,204,73641,6,0,B|288:163|257:134|221:124,2,115,4|8|4,0:0|0:0|0:0,0:0:0:0:
296,280,75516,1,4,0:0:0:0:
368,256,75891,2,0,L|436:264,1,57.5,8|4,0:0|0:0,0:0:0:0:
484,216,76641,2,0,B|478:175|456:142|425:121,2,115,4|8|4,0:0|0:0|0:0,0:0:0:0:
492,292,78516,1,2,0:0:0:0:
436,340,78891,1,8,0:0:0:0:
304,272,79641,5,4,0:0:0:0:
176,348,80391,2,0,B|133:359|91:347|60:320,1,115,8|0,0:0|0:0,0:0:0:0:
68,252,81516,2,0,B|96:237|116:212,2,57.5,4|8|0,0:0|0:0|0:0,0:0:0:0:
0,228,82641,2,0,B|-13:184|3:139|35:112,1,115,4|8,0:0|0:0,0:0:0:0:
160,56,84141,1,0,0:0:0:0:
224,92,84516,1,6,0:0:0:0:
300,96,84891,2,0,B|324:95|346:88|365:75,1,57.5,8|0,0:0|0:0,0:0:0:0:
428,100,85641,6,0,B|451:138|456:181|444:220,2,115,4|8|4,0:0|0:0|0:0,0:0:0:0:
316,200,87891,2,0,B|308:242|316:284,1,57.5,8|4,0:0|0:0,0:0:0:0:
272,320,88641,2,0,B|250:331|226:333|203:328,1,57.5,4|4,0:0|0:0,0:0:0:0:
168,272,89391,2,0,L|164:148,1,115,8|4,0:0|0:0,0:0:0:0:
220,104,90516,1,2,0:0:0:0:
288,136,90891,1,8,0:0:0:0:
436,120,91641,6,0,B|447:79|435:37|408:8,2,115,4|8|0,0:0|0:0|0:0,0:0:0:0:
376,168,93516,1,4,0:0:0:0:
340,232,93891,2,0,L|344:308,1,57.5,8|0,0:0|0:0,0:0:0:0:
396,344,94641,2,0,B|436:315|449:264|432:221,2,115,4|8|0,0:0|0:0|0:0,0:0:0:0:
324,360,96516,2,0,L|264:352,2,57.5,2|8|0,0:0|0:0|0:0,0:0:0:0:
344,288,97641,6,0,B|319:249|274:233|233:240,1,115,4|8,0:0|0:0,0:0:0:0:
96,256,99141,2,0,L|36:260,2,57.5,4|4|8,0:0|0:0|0:0,0:0:0:0:
156,300,100266,1,4,0:0:0:0:
208,248,100641,2,0,L|196:128,2,115,4|8|4,0:0|0:0|0:0,0:0:0:0:
252,308,102516,1,6,0:0:0:0:
308,256,102891,2,0,B|315:226|312:196,1,57.5,8|4,0:0|0:0,0:0:0:0:
332,128,103641,6,0,B|375:123|415:138|444:164,2,115,4|8|0,0:0|0:0|0:0,0:0:0:0:
260,148,105516,1,4,0:0:0:0:
196,108,105891,2,0,B|181:89|175:66|176:44,1,57.5,8|0,0:0|0:0,0:0:0:0:
112,16,106641,2,0,B|86:49|78:91|88:128,1,115,4|8,0:0|0:0,0:0:0:0:
180,240,108141,2,0,L|188:308,1,57.5,0|2,0:0|0:0,0:0:0:0:
256,324,108891,2,0,L|264:256,1,57.5,8|0,0:0|0:0,0:0:0:0:
308,208,109641,6,0,B|345:185|387:181|424:192,2,115,4|8|4,0:0|0:0|0:0,0:0:0:0:
240,180,111516,2,0,B|233:156|235:132|244:112,2,57.5,4|8|4,0:0|0:0|0:0,0:0:0:0:
248,256,112641,2,0,L|236:376,1,115,4|8,0:0|0:0,0:0:0:0:
96,316,114141,2,0,L|92:252,2,57.5,4|2|8,0:0|0:0|0:0,0:0:0:0:
36,360,115266,1,4,0:0:0:0:
256,192,115641,12,2,121641,0:0:0:0:
